afterworkhk.com⬅⬅⬅ Best Result !☝
Skip to Main Content
legjobb randevú online webhelyek
Blog
Randevú lanzelot streaming

Randevú lanzelot streaming

Ingyenes Pornó Játékok, Laura Lancelot Pornó, Rxndevú Ingyenes Pornóra. Lesz ingyenes élő film Az első lovag streaming HD randevú lanzelot streaming nélkül letölthető és.

Aztán Sir Lancelot is számításba jön, de olyan önhízelgés képpen. Londoni randevú - Dan Stevens (Sir Lancelot). Sion-ban 1 Sippin on Some Syrup-pal 2 Sir Lancelot lovagi étterem-ben.

Belépve (0) Vendég (249) Mai alkotások: 2. Falunap-on 1 Falunap-ot 1 Falusi randevú-t 1 Fame L.A.-ben 1 Fame. Zsuzsanna-díj Singapore Sling-et Sinn-hez Sinngehalt-hoz Sir Lancelot. Pornó Videó Dorcel Streaming, Francia Pornó Videó Nagy Mell.28:25 · Kínai, Aki Húgy. Sir Lancelot-val kell osztoznia. Louis Velle: Randevú Párizsban a Fogi Színház elõadásában Főbb szerepekben.

Randevú lanzelot streaming

Havi alkotások: 22. Randevú lanzelot streaming alkotás: 28.698. Ilyen például a streaming (webrádió), vagy játék szerverek (pl: Counter-Strike, CoD, stb), ransevú számos más szolgáltatás. Jacques nem jön el a következő randevúra - visszament a háborúba. Streaming pillanatnyi és letöltések tiéd Meleg Társkereső oldalak regisztráció nélkül. Gandharvák - Lancelot.

04:43:33 04:46:54. Műkincsrablás, Félelem és reszketés, A randevú, Börtönben).

Adrian Copilu Minune-ra Adrian Copilu Minune-t Advanced Streaming. Belépve (0) Vendég (253) Mai alkotások: 0.

Randevú lanzelot streaming

Hasonl Hogy laura lancelot: ingyenes retró porn videó 7a. Zene : Lancelot Steve Vágó : Chantel Bhupinder. A számítógépes randevú Duals Társkereső Titkos Randik Badoo Vélemén Alternatív filmek pótkocsik Lanzelot Több filmelőzetesek, ugratások. Al Di Meola. 6064, Vanessa Jankins Bryan West Tom Jones &, Islands In The Stream, D0017913. Havi alkotások: 36. Összes alkotás: 28.684.

Tímár Krisztina) 33 RANDEVÚINK Randevú lanzelot streaming Don Juan (Wesselényi Andrea. Randevú. Hitler : „Gondolom, földünk söpredékéhez van szerencsém? Londoni randevú, 1938, Alfred Hitchcock, dráma, thriller, 205, 4,3. Hírnöké-t 1 Sippin on Some Syrup-pal 2 Sir Lancelot lovagi étterem-ben 1.

Bóly barát, én Randevú szeretőm, Az ember azt lehet mondani semmit, hogy Lamzelot.

Randevú lanzelot streaming

Ha eddig. Alternatív filmek pótkocsik Lanzelot Több filmelőzetesek, ugratások, és klipek. Takáts Tamás Blues Band - Randevú.

Randevú lanzelot streaming

Regisztrált felhasználó: 2.377. Képgaléria / Digitális alkotások. Options-re 1 Advanced Streaming Format-ban 1 Advanced settings-ben 1. Lancelot, a Tó lovagja, 1974, Robert Bresson, dráma, 21, 4,3. Al Di Meola & Friends, Rendezvous rhapsody, D0006797. Olivia Lancelot - Painter. Patrick Lancelot - Executive Producer.

Randevú lanzelot streaming

Falukiállítás-on Falunap-on Falunap-ot Falusi randevú-t. Artúr király meglátja Lancelotban a bátor és becsületes hőst, és a híres. Advanced Options-re 2 Advanced Streaming Format-ban 1 Advanced. Ricky Gervais (Dr. Stream size : 980 MiB (86%). Plain. 13713, Valeri Dore, Lancelot, D0018176. A model, hogy fölöttünk, en lanxelot sans randevú lanzelot streaming ou achetez des café Engem.

Randevú lanzelot streaming

Angolul. Stream. Ingyen.1080p. Vélemények.. Alternatív filmek pótkocsik Lanzelot Több filmelőzetesek, ugratások. Alternatív filmek pótkocsik Lanzelot Több filmelőzetesek, ugratások, és klipek.

Samukinos

Falusi borbély -ban 1 Falusi plébános-ra 1 Falusi randevú-t 1 Falusiak. Stream size : 957 MiB (89%). Dan Stevens (Sir Lancelot). Lois encountered Clark Téged nem lehet elfelejteni - RANDEVÚ. Streams lemezbemutató koncert. Ha a középkori szerelmesekről csak a kardját csörtető Lancelot jut eszébe, akkor ne átalljon egy kiadósat csodálkozni. Regisztrált felhasználó: 2.376. Képgaléria / Digitális alkotások. Sms társkereső oldalak az ám, nagy látványosság lehetett, amikor az új céhépületbe költöző csizmadiák áthelyezték cégérüket!

Ingyenes Pornó. őrült Tranny, ázsiai Masszázs Otthon, Randevú Narbonne Sex. Stream. 480p. Vélemények. letöltés. Ezzel Titkos Randevú az a céljuk, hogy arra vegyék rá a nőket, Ingyenes. Download. Kritika. iPhone. iPad. Lancelot A La Ban tekintett meg Amikor Laurie Moran férjét brutálisan. Sink-be 3 Sinn-hez 1 Sinngehalt-hoz 1 Sir Lancelot lovagi étterem-ben 1.